新機車的雙鏡頭行車紀錄器 SGH D720(下)


主機,螢幕解析度不高前一篇,大概介紹了 SGH D720 的硬體部份了,接下來這篇,則是來講他使用時的狀況、以及一些 Heresy 個人的感想吧。

首先,右圖就是他開機起來,在設定選單中的樣子。

SGH D720 在 Heresy 來看,需要設定的東西應該不算多?最初拿到最重要的,是要設定正確的時間、日期,這樣以後真的有需要時,才能發揮影片紀錄的效用。

再來,他也可以設定錄影時要多久一段,選項有 1 / 3 / 5 分鐘三段,預設應該是每分鐘都獨立一個檔案。

在電源控制方面,他可以設定是否要通電後自動開始錄影,一般應該是會開啟;這樣一來,只要啟動機車,行車紀錄器就會自己運作了,不需要任何額外的動作

當機車熄火、斷電後,D720 也會自動關閉,所以在停車後,其實可以完全不理她的。而在這邊也可以設定要在斷電後、晚一點再停止錄影、關機(3 / 5 / 10 秒),這樣可以避免如果因為車禍斷電後,什麼都沒錄到的狀況。

而如果想要在出車禍時,可以把那段時間的影片鎖定、避免被循環錄影蓋掉的話,也可以設定「震動鎖檔靈敏度」;他有三段可以選取,基本上就是在震動大到一定程度時,會把檔案特別標記、永遠保存。不過使用這個功能也要小心,在台灣的拉力級路面,搞不好過個洞就自動鎖檔,結果搞到整張卡都被鎖死、不能寫新檔案進去

當然,其他還有不少設定,基本上應該都算是看看就知道是什麼意思的了。

個人覺得他在設計上比較討厭的地方,就是只有自動鎖檔、沒有手動鎖檔,這點讓他的紀錄保存性問題,變得比較麻煩一些…再來,就是他雖然除了錄影之外,也有拍照的功能(解析度可以到 8MP),但是所有操作都必須直接操作機器本體,這也讓拍照這項功能的實用性趨近為零了… = =


下面,則是他的螢幕畫面:

翻拍畫面

基本上,他的螢幕解析度不算很好,格點很清楚,攝影機就算有拍到車牌,應該也很難靠本身的螢幕看出來;而由於應該是採用便宜的 TN 面板,所以可視角也不佳。下面左圖就是他的視角測試圖。

TN 面板 裝上防水套後的畫面

而如果包上防水套後,畫面的清晰度會再降一點(右上圖),不過實際上已經算是沒什麼差了。

在 Heresy 來看,他的螢幕基本上就只能說是用來設定、確認攝影機角度,以及確認有錄到檔案用的,除此之外應該算是沒什麼實用性了吧


再來,在記憶卡的部分,他隨機有附一張 Kingston 的 16GB 卡;考慮到他的一個影片一分鐘大概 60MB,前後鏡頭加起來就是一分鐘 120MB,16GB 其實只能錄大概兩個小時出頭;所以如果長騎長程的話,基本上應該是一定得買張容量比較大的記憶卡了。

測試記憶卡而根據官方的說法,他支援 8 – 64GB 的 MicroSD;不過根據 Heresy 自己的測試,SanDisk 的 128GB、256GB 版本的 MicroSD 也都是可以搭配 D720 正常使用、不會有問題的

右圖就是 Heresy 自己測試過、可以使用的記憶卡。考慮到價錢的話,目前應該是買張 128GB 的 microSD 來用最划算吧~


再來,下面則是他的開機速度測試影片。

基本上,應該是機車通電後,他就會開始開機;開完機之後,會依序偵測攝影機 A 和攝影機 B,都完成後,就會開始錄影。這樣整個流程大致上會在 10 秒內,應該算可以接受的速度了。


錄下來的檔案呢,在記憶卡裡面主要會有「SOS」、「VIDA」、「VIDB」這三個資料夾,其中「VIDA」、「VIDB」就是兩個鏡頭的影片檔個別存放的位置了;「SOS」沒弄錯的話,應該會是自動鎖檔的影片?
(有拍照應該還會有其他的?不過 Heresy 沒有用過)

錄下來的檔案名稱,則是「20161204_140718A.mp4」這樣、日期加時間的格式,檔名的最後會標記 A / B,方便區分。而在實際使用時,兩個攝影機的紀錄起始時間似乎會有一點時間的差異,像是和「20161204_140718A.mp4」對應的,就是「20161204_140719B.mp4」;基本上差異大概會是在秒這個單位,應該不會造成什麼問題才對。

而影片的格式呢,則是 mp4、MPEG4 的影片。裡面的編碼是 VBR 的 AVC(Advanced Video Codec),解析度是 1280×720、Frame rate 只有 25,算是略少;Bitrate 大約是 8Mbps,每分鐘的檔案大概會是接近 60MB。

聲音的部分則是單聲道的 AAC(Advanced Audio Codec ) VBR 壓縮,bitrate 在 15kbps 左右。

有興趣的話,下面是在 Media Player Classic HC 中顯示的檔案資訊:

General
Complete name                  : G:\video\VIDB\20161204_180145B.mp4
Format                         : MPEG-4
Format profile                 : Base Media
Codec ID                       : isom
File size                      : 57.7 MiB
Duration                       : 1mn 0s
Overall bit rate mode          : Variable
Overall bit rate               : 8 072 Kbps

Video
ID                             : 1
Format                         : AVC
Format/Info                    : Advanced Video Codec
Format profile                 : Main@L3.1
Format settings, CABAC         : Yes
Format settings, ReFrames      : 1 frame
Format settings, GOP           : M=1, N=25
Codec ID                       : avc1
Codec ID/Info                  : Advanced Video Coding
Duration                       : 1mn 0s
Source duration                : 59s 960ms
Bit rate                       : 7 987 Kbps
Width                          : 1 280 pixels
Height                         : 720 pixels
Display aspect ratio           : 16:9
Frame rate                     : 25.000 fps
Color space                    : YUV
Chroma subsampling             : 4:2:0
Bit depth                      : 8 bits
Scan type                      : Progressive
Bits/(Pixel*Frame)             : 0.347
Stream size                    : 57.1 MiB (99%)
Source stream size             : 57.1 MiB (99%)
Language                       : English
mdhd_Duration                  : 60000

Audio
ID                             : 2
Format                         : AAC
Format/Info                    : Advanced Audio Codec
Format profile                 : LC
Codec ID                       : 40
Duration                       : 1mn 0s
Source duration                : 1mn 0s
Bit rate mode                  : Variable
Bit rate                       : 15.9 Kbps
Channel(s)                     : 1 channel
Channel positions              : Front: C
Sampling rate                  : 8 000 Hz
Compression mode               : Lossy
Stream size                    : 116 KiB (0%)
Source stream size             : 116 KiB (0%)
Language                       : English
mdhd_Duration                  : 60000

接下來,就是看看實際上路的畫面了~

首先,下面的照片就是行駛中的前鏡頭畫面;這張圖是由影片中直接擷取出來的,直接用電腦看基本上就是類似這樣。

正面,左下角會拍到車體

龍頭往右時,會遮到不少他會在左下角加上 SGH D720 的字樣,然後也會加上時間和日期。

而左下角的部分,則是由於安裝位置的關係,所以會拍到車頭…雖然在這個狀況下影響不大,但是根據龍頭的旋轉、遮蔽的範圍也會不同;像右圖就是把龍頭右轉到底的遮蔽結果,這時候就遮了很大一塊了…

所以,之後 Heresy 應該會想看看,攝影機有沒有更好的安裝位置吧…

再來,下面則是後鏡頭的畫面:

後鏡頭

後鏡頭基本上就沒有遮蔽的問題了。

下面的播放清單,則是 Heresy 實際錄影的結果:

其中,聲音是由外接的麥克風取得的,在高速的時候基本上風切聲還是相當大。

在畫質上呢,在天氣一般的時候,他的錄影結果和 Heresy 預期的差不多;以車牌來說,只要靠近到一定距離,都可以看的滿清楚的。

但是如果天氣太好,看來也會有過曝問題…像第三、四段影片,就是在天氣很好的情況下拍攝結果,很多情況下,會因為曝光值計算的問題,導致整個畫面都有過曝的狀況,而重要的車牌也會變成是一片白的。這個問題雖然可以靠調整 EV(曝光補償)來修正;但是實際上,真正在使用應該是不太可能每次都針對當時的天氣做調整,所以…恩,就勉強用吧…

另外,如果對著太陽騎的時候會怎樣呢?下面就是結果。

強光下的畫面

在畫面中的黑點就是太陽,由於他的亮度已經超過範圍了,所以就直接變黑的了~ XD

而在這種大逆光的情況下,基本上人眼也都看不太到對向來車的車牌了,所以也就不用太期待效果了。 ^^"

至於晚上呢?Heresy 個人是覺得比預期的差了些啊…

夜晚

在 Heresy 自己使用的狀況下,大部分的情況下車牌都是看不清楚的要能看得清楚車牌的條件,在 Heresy 來看應該算是頗為嚴苛。基本上,除非亮度剛好、而且兩者的速度差小於一定程度,否則車牌是註定會糊掉的… orz

有的時候就算停下來,還是有可能因為亮度問題,導致根本拍不到車牌;下面就是一個前車車牌過曝的例子。

停下來也可能看不到前車牌

下圖,則是另一個夜晚的示意;可以看到,右邊的路牌基本上也只看的到大字,小字都是看不清楚的。

夜晚


最後,簡單整理一下 Heresy 覺得 SGH D720 這款雙鏡頭行車紀錄器的主要缺點:

  • 外接麥克風、燈號沒有任何按鈕,所以沒有手動鎖檔功能,也很難拍照,便利性略低
  • 夜拍品質不如預期,要看出車牌號碼有相當的難度
  • 許多狀況都有可能過曝,軟體對於曝光的計算有待加強
  • 只有 720p @ 25FPS,規格略低

優點呢,大概是:

  • 裝好後不用管,只要照平常的方法騎車就可以了,非常簡單
  • 雖然官方沒寫,不過支援大容量記憶卡

至於到底值不值得呢?Heresy 目前也只用過這款行車紀錄器,所以還很難判斷;但是只能說,整體來看,他比 Heresy 預期的還差一些…

不過老實說,要能到達夜拍效果很好,以現在的技術來說,應該有相當的難度吧? ^^"

之後,大概會再想辦法調整一下攝影機、尤其是前鏡頭的位置吧。

Advertisements

關於 Heresy
https://kheresy.wordpress.com

One Response to 新機車的雙鏡頭行車紀錄器 SGH D720(下)

  1. 通告: 新機車的雙鏡頭行車紀錄器 SGH D720(上) | Heresy's Space

發表迴響

在下方填入你的資料或按右方圖示以社群網站登入:

WordPress.com Logo

您的留言將使用 WordPress.com 帳號。 登出 / 變更 )

Twitter picture

您的留言將使用 Twitter 帳號。 登出 / 變更 )

Facebook照片

您的留言將使用 Facebook 帳號。 登出 / 變更 )

Google+ photo

您的留言將使用 Google+ 帳號。 登出 / 變更 )

連結到 %s

%d 位部落客按了讚: